<?xml version="1.0" standalone="no"?>
<!DOCTYPE svg PUBLIC "-//W3C//DTD SVG 1.1//EN" "http://www.w3.org/Graphics/SVG/1.1/DTD/svg11.dtd" >
<svg xmlns="http://www.w3.org/2000/svg" xmlns:xlink="http://www.w3.org/1999/xlink" version="1.1">
<metadata>
Created by FontForge 20190801 at Wed Sep 18 08:11:01 2019
 By Jimmy Wärting
</metadata>
<defs>
<font id="iconfont" horiz-adv-x="1000" >
  <font-face 
    font-family="iconfont"
    font-weight="400"
    font-stretch="normal"
    units-per-em="1000"
    panose-1="2 0 5 3 0 0 0 0 0 0"
    ascent="1000"
    descent="0"
    bbox="-8 0 1475 1000"
    underline-thickness="0"
    underline-position="10"
    unicode-range="U+EA01-EA3B"
  />
<missing-glyph horiz-adv-x="0" 
 />
    <glyph glyph-name=".notdef" horiz-adv-x="0" 
 />
    <glyph glyph-name="ic_360" unicode="&#xea01;" 
d="M563 875q-103 0 -190 -51q-85 -50 -135 -135q-50 -87 -50 -189h-125l162 -162l2 -7l169 169h-125q0 79 40 147q39 66 105 105q68 40 146.5 40t146.5 -40q66 -39 105 -105q40 -68 40 -147t-40 -147q-39 -66 -105 -105q-68 -40 -147 -40q-59 0 -114 24q-52 22 -92 62
l-58 -59q51 -52 119 -81t145 -29q103 0 190 51q85 50 135 135q51 87 51 188.5t-52 189.5q-50 85 -135 135q-87 51 -188 51z" />
    <glyph glyph-name="ic_404error" unicode="&#xea02;" 
d="M500 818q-87 0 -161 -43q-73 -43 -115 -115q-44 -75 -44 -162t44 -161q42 -73 115 -115q74 -44 161 -44t161 44q73 42 115 115q44 74 44 161t-44 162q-43 72 -115 115q-75 43 -161 43zM213 498q0 78 39 145q38 65 103 103q67 39 145 39q54 0 104 -20q48 -19 86 -53
l-403 -405q-35 38 -54.5 87.5t-19.5 103.5zM500 212q-54 0 -102 18.5t-86 52.5l403 405q35 -38 54 -86q19 -50 19 -104q0 -78 -39 -143.5t-104 -103.5q-67 -39 -145 -39z" />
    <glyph glyph-name="ic_account_setting" unicode="&#xea03;" 
d="M502 365q-64 0 -121 -23t-95.5 -63.5t-52.5 -91.5l32 -9q11 44 45 78.5t84 54t106.5 19.5t106.5 -19.5t83.5 -54t44.5 -78.5l32 9q-12 51 -50 91.5t-94.5 63.5t-120.5 23zM502 447q52 0 96.5 26t70.5 70.5t26 96.5t-26 96.5t-70.5 70.5t-97 26t-97 -26t-70.5 -70.5
t-26 -96.5t26 -96.5t70.5 -70.5t97.5 -26zM502 800q43 0 80 -21.5t58.5 -58.5t21.5 -80t-21.5 -80t-58.5 -58.5t-80.5 -21.5t-80 21.5t-58 58.5t-21.5 80t21.5 80t58 58.5t80.5 21.5z" />
    <glyph glyph-name="ic_basket" unicode="&#xea04;" 
d="M758 679q0 57 -28 114t-73 93q-49 39 -103 39h-104q-54 0 -104 -39q-46 -36 -75 -93.5t-29 -113.5h-159l84 -500q0 -34 24.5 -58.5t58.5 -24.5h500q34 0 58.5 24.5t24.5 58.5l84 500h-159zM333 679q0 38 18.5 79t47.5 67q32 29 68 29h66q36 0 68 -29q29 -26 47.5 -67
t18.5 -79h-334z" />
    <glyph glyph-name="ic_basket_stroke" unicode="&#xea05;" 
d="M758 700q-4 55 -32.5 107t-72.5 84q-47 34 -99 34h-104q-50 0 -98 -34q-44 -32 -74 -84.5t-36 -106.5h-175l83 -508q0 -33 16 -59.5t43 -42t58 -15.5h458q32 0 59 16t43.5 42.5t18.5 58.5l87 508h-175zM467 854h66q32 0 62 -24q27 -22 46 -57.5t26 -72.5h-334
q7 37 26 72.5t46 57.5q30 24 62 24zM763 204v-8q0 -14 -10.5 -26t-27.5 -12h-458q-16 0 -25 11t-9 27l-66 421h666z" />
    <glyph glyph-name="ic_checkbox_checked" unicode="&#xea06;" 
d="M125 875v-750h750v750h-750zM388 246l-184 192l67 66l117 -129l333 333l62 -62z" />
    <glyph glyph-name="ic_checkbox_unchecked" unicode="&#xea07;" 
d="M833 833v-666h-666v666h666zM875 875h-750v-750h750v750z" />
    <glyph glyph-name="ic_checked" unicode="&#xea08;" 
d="M367 325l-175 175l-59 -58l234 -234l500 500l-59 59z" />
    <glyph glyph-name="ic_close" unicode="&#xea09;" 
d="M963 904l-59 59l-404 -405l-404 405l-58 -59l404 -404l-404 -404l58 -58l404 404l404 -404l59 58l-405 404z" />
    <glyph glyph-name="ic_close_dialog" unicode="&#xea0a;" 
 />
    <glyph glyph-name="ic_collapse" unicode="&#xea0b;" 
d="M271 521h458v-42h-458v42z" />
    <glyph glyph-name="ic_copyclipboard" unicode="&#xea0c;" 
d="M681 92h-500v625h500v-625zM223 133h417v542h-417v-542zM819 258h-42v563h-442v42h480v-605h4z" />
    <glyph glyph-name="ic_cta_bigarrow" unicode="&#xea0d;" horiz-adv-x="1500" 
d="M983 1000l-33 -33l446 -446h-1371v-42h1371l-446 -446l33 -33l492 500z" />
    <glyph glyph-name="ic_cta_mediumarrow_left" unicode="&#xea0e;" 
d="M300 504l446 446l-33 33l-471 -479l483 -483l33 33z" />
    <glyph glyph-name="ic_cta_mediumarrow_right" unicode="&#xea10;" 
d="M275 21l-33 33l458 450l-446 446l34 33l470 -479z" />
    <glyph glyph-name="ic_cta_mediumarrow_right" unicode="&#xea0f;" 
d="M275 21l-33 33l458 450l-446 446l34 33l470 -479z" />
    <glyph glyph-name="ic_cta_smallarrow_left" unicode="&#xea11;" 
d="M617 238l-267 266l258 263l34 -34l-234 -229l242 -233z" />
    <glyph glyph-name="ic_cta_smallarrow_right" unicode="&#xea12;" 
d="M392 767l-34 -34l234 -229l-242 -233l33 -33l267 266z" />
    <glyph glyph-name="ic_dropdownarrow_down" unicode="&#xea13;" 
d="M500 375l-167 208h334z" />
    <glyph glyph-name="ic_dropdownarrow_up" unicode="&#xea14;" 
d="M500 625l167 -208h-334z" />
    <glyph glyph-name="ic_edit" unicode="&#xea15;" 
d="M894 696q0 50 -29 79l-88 88q-21 26 -71 33q-50 0 -79 -29l-37 -38l-442 -450l-42 -275l275 42l479 479q16 13 25 31t9 40zM181 325l146 -146l-175 -25zM373 196l-175 175l387 387l175 -175zM831 658l-37 -41l-175 175l37 37q21 21 46 21q21 0 42 -21l87 -87
q21 -21 21 -45.5t-21 -38.5z" />
    <glyph glyph-name="ic_email" unicode="&#xea16;" 
d="M60 808v-616h880v616h-880zM540 433q-16 -15 -38 -15t-37 15l-330 334h738zM340 500l-238 -237v475zM369 471l66 -67q32 -25 67 -25q19 0 37 6.5t30 18.5l66 67l238 -238h-742zM665 504l233 234v-467z" />
    <glyph glyph-name="ic_expand" unicode="&#xea17;" 
d="M729 521h-208v208h-42v-208h-208v-42h208v-208h42v208h208v42z" />
    <glyph glyph-name="ic_favorite_big" unicode="&#xea18;" 
d="M501 258l-37 38q-80 70 -115 106q-51 52 -75 93q-27 46 -27 90q3 60 42 98t100 38q34 0 63 -13.5t49 -38.5q22 23 49 37q31 15 64 15q40 0 72 -18.5t49.5 -50t17.5 -71.5q0 -45 -27 -91q-24 -43 -75 -94q-39 -40 -115 -104z" />
    <glyph glyph-name="ic_favorite_small_stroke" unicode="&#xea19;" 
d="M502 208l-58 59q-87 76 -127 117q-59 60 -87 109q-32 56 -32 111q2 48 26 86t64 59.5t89 21.5q75 0 125 -50q26 23 58 36q34 14 67 14q49 0 89 -23t63 -63t23 -89q0 -54 -32 -110q-29 -50 -88 -110q-45 -45 -130 -118zM377 729q-59 0 -96.5 -36t-40.5 -93q0 -44 27 -90
q24 -42 79 -96q39 -40 127 -118l29 -29l21 21q82 69 123 109q56 55 83 99q31 50 31 96q0 59 -37 96t-96 37q-31 0 -60 -14t-48 -36l-17 -17l-17 21q-37 50 -108 50z" />
    <glyph glyph-name="ic_favorite_stroke" unicode="&#xea1a;" 
d="M667 746q50 0 83 -33.5t33 -83.5q0 -44 -32 -96q-28 -45 -89 -109q-39 -40 -136 -132l-26 -25q-106 94 -155 143q-66 65 -96 114q-32 53 -32 102t33 82.5t83 33.5q29 0 57.5 -12.5t47.5 -33.5l62 -67l63 67q21 24 48 37t56 13zM667 829q-49 0 -93 -20q-42 -20 -74 -55
q-32 35 -76 55t-91 20q-55 0 -101 -26.5t-72.5 -72t-26.5 -101.5q0 -67 40 -135q34 -59 108 -134q48 -48 165 -152l54 -50l54 46l16 15q113 105 156 151q71 74 103 131q38 65 38 128q0 56 -26 101.5t-71.5 72t-102.5 26.5v0z" />
    <glyph glyph-name="ic_hamburger" unicode="&#xea1b;" 
d="M104 875h792v-83h-792v83zM104 542h792v-84h-792v84zM104 208h792v-83h-792v83z" />
    <glyph glyph-name="ic_line_small-white" unicode="&#xea1d;" 
d="M0 88l913 912l87 -87l-912 -913z" />
    <glyph glyph-name="ic_line_small-white" unicode="&#xea1c;" 
d="M0 88l913 912l87 -87l-912 -913z" />
    <glyph glyph-name="ic_mailing_list" unicode="&#xea1e;" 
d="M889 257v0v515h-778v-544h778v29zM534 440q-14 -14 -34.5 -14t-35.5 14l-296 298h665zM358 500l-214 -215v430zM383 475l60 -60q12 -11 27.5 -17t30.5 -6q32 0 58 23l62 62l217 -217h-670zM644 503l212 212v-425z" />
    <glyph glyph-name="ic_minus_big" unicode="&#xea1f;" 
d="M252 542h496v-42h-496v42z" />
    <glyph glyph-name="ic_minus_small" unicode="&#xea20;" 
d="M333 542h334v-84h-334v84z" />
    <glyph glyph-name="ic_moreimages" unicode="&#xea21;" 
d="M760 596v100h-100v96h-525v-371h100v-104h105v-100h525v379h-105zM177 750h442v-287h-442v287zM277 421h383v233h59v-296h-442v63zM823 258h-442v59h379v237h63v-296zM417 675h-42v-50h-46v-42h46v-45h42v45h46v42h-46v50z" />
    <glyph glyph-name="ic_order" unicode="&#xea22;" 
d="M908 288v377h-4l4 5l-317 193l-280 20l120 -78l-87 -40l-128 85l-123 -198v-375l335 -219zM446 415l428 205v-312l-428 -205v312zM581 830l267 -163l-159 8l-251 165zM464 783l215 -141l149 -7l-380 -183l106 173l-176 117zM226 802l282 -187l-97 -158l-285 185zM126 603
l287 -186v-309l-287 185v310z" />
    <glyph glyph-name="ic_order_history" unicode="&#xea23;" 
d="M511 637v-159l153 -118l-20 -27l-166 129v175h33zM501 850q-59 0 -113 -17t-99 -50l-55 65l-11 -140l140 -11l-52 61q84 59 190 59q91 0 169 -46q76 -44 120 -120q46 -78 46 -169t-46 -169q-44 -76 -120 -121q-78 -45 -169 -45t-170 45q-76 45 -121 121q-46 78 -46 169
h-33q0 -100 51 -186q49 -83 133 -132q86 -51 186 -51t186 51q83 48 132 132q50 86 50 186t-50 186q-49 83 -132 132q-86 50 -186 50z" />
    <glyph glyph-name="ic_pf_gift" unicode="&#xea24;" 
d="M818 677v0h-324q7 3 7 10q1 -4 4.5 -7t8.5 -3q51 3 94 14q35 8 64 22q20 10 36 21l11 9q44 46 11 88l-1 1q0 1 -3 1q-15 10 -39 10q-48 0 -108 -56q-38 -36 -76 -90q-2 -2 -2 -5v0q0 1 -2 3q-34 52 -75 92q-59 56 -108 56q-22 0 -40 -11q-1 0 -2 -1t-2 -1
q-11 -12 -14 -29q-4 -30 25 -59l10 -9q14 -10 32 -19q26 -13 57 -22q38 -11 82 -15h-281v-169h31v-320h577v320h27v169zM688 810q11 0 21 -5q12 -15 -11 -38l-9 -7q-10 -8 -25 -15q-19 -10 -43 -18q-30 -9 -64 -14q37 46 71.5 71.5t59.5 25.5zM306 767q-12 13 -15 22t3 16
q10 5 22 5q26 0 60.5 -25.5t69.5 -71.5q-60 9 -105 31q-25 12 -35 23zM783 542h-260v101h260v-101zM216 643h273v-101h-273v101zM248 508h241v-286h-241v286zM758 222h-235v286h235v-286z" />
    <glyph glyph-name="ic_primary_card" unicode="&#xea25;" 
d="M192 17l50 350l-250 250l341 58l167 317l167 -317l341 -50l-250 -250l50 -350l-308 158zM500 283l208 -108l-41 225l166 167l-225 33l-108 217l-108 -217l-225 -33l166 -167l-41 -225z" />
    <glyph glyph-name="ic_print" unicode="&#xea26;" 
d="M806 558h-29v300h-550v-300h-33q-44 0 -74 -30t-30 -74v-312h820v312q0 44 -30 74t-74 30zM269 817h466v-259h-466v259zM694 183h-384v150h384v-150zM869 183h-134v192h-466v-192h-138v271q0 25 19 44t44 19h612q25 0 44 -19t19 -44v-271z" />
    <glyph glyph-name="ic_profile_login" unicode="&#xea27;" 
d="M254 588q0 -67 33 -123.5t89.5 -89.5t123.5 -33t123.5 33t89.5 89.5t33 123t-33 123t-89.5 89.5t-123.5 33t-123.5 -33t-89.5 -89.5t-33 -123.5v1zM500 275q-82 0 -155.5 -29.5t-124.5 -81.5t-70 -118h700q-19 66 -70 118t-124.5 81.5t-155.5 29.5z" />
    <glyph glyph-name="ic_profile_logout" unicode="&#xea28;" 
d="M504 338q68 0 125.5 33.5t91 91t33.5 125t-33.5 125t-91 91.5t-125 34t-125 -34t-91.5 -91.5t-34 -125t34 -125t91.5 -91t124.5 -33.5zM504 754q45 0 83.5 -22.5t61 -60.5t22.5 -83.5t-22.5 -83.5t-61 -60.5t-83.5 -22.5t-83.5 22.5t-60.5 60.5t-22 83.5t22 83.5
t60.5 60.5t83.5 22.5zM504 275q-84 0 -159 -30.5t-127 -85t-68 -121.5l79 -21q13 49 51.5 88t96 60.5t123.5 22t123.5 -21.5t96 -61t51.5 -88l79 21q-12 67 -63 122q-49 54 -123.5 84.5t-159.5 30.5z" />
    <glyph glyph-name="ic_radio_btn_selected" unicode="&#xea29;" 
d="M500 117q-107 0 -199 54q-90 53 -142 143q-55 92 -55 198.5t55 198.5q52 90 142 143q92 54 199 54t199 -54q90 -53 142 -143q55 -92 55 -198.5t-55 -198.5q-52 -90 -142 -143q-92 -54 -199 -54zM500 867q-96 0 -179 -49q-80 -47 -127 -127q-48 -82 -48 -178.5t48 -178.5
q47 -80 127 -127q83 -49 179 -49t179 49q80 47 127 127q48 82 48 179q-2 94 -51 177q-48 80 -127 127q-82 50 -176 50zM675 500q0 -45 -22.5 -83.5t-61 -61t-83.5 -22.5t-83 22.5t-60.5 61t-22.5 83.5t22.5 83.5t60.5 61t83 22.5t83.5 -22.5t61 -61t22.5 -83.5z" />
    <glyph glyph-name="ic_radio_btn_selected_white" unicode="&#xea2a;" 
d="M16 500q0 -131 66 -244q64 -110 174 -174q113 -66 244 -66t244 66q110 64 174 174q66 113 66 244t-66 244q-64 110 -174 174q-113 66 -244 66t-244 -66q-110 -64 -174 -174q-66 -113 -66 -244zM242 500q0 -70 34.5 -129.5t94 -94t129.5 -34.5t129.5 34.5t94 94
t34.5 129.5t-34.5 129.5t-94 94t-129.5 34.5t-129.5 -34.5t-94 -94t-34.5 -129.5z" />
    <glyph glyph-name="ic_radio_btn_unselected" unicode="&#xea2b;" 
d="M500 117q-107 0 -199 54q-90 53 -142 143q-55 92 -55 198.5t55 198.5q52 90 142 143q92 54 199 54t199 -54q90 -53 142 -143q55 -92 55 -198.5t-55 -198.5q-52 -90 -142 -143q-92 -54 -199 -54zM500 867q-96 0 -179 -49q-80 -47 -127 -127q-48 -82 -48 -178.5t48 -178.5
q47 -80 127 -127q83 -49 179 -49t179 49q80 47 127 127q48 82 48 179q-2 94 -51 177q-48 80 -127 127q-82 50 -176 50z" />
    <glyph glyph-name="ic_radio_btn_unselected_white" unicode="&#xea2c;" 
d="M16 500q0 -131 66 -244q64 -110 174 -174q113 -66 244 -66t244 66q110 64 174 174q66 113 66 244t-66 244q-64 110 -174 174q-113 66 -244 66t-244 -66q-110 -64 -174 -174q-66 -113 -66 -244z" />
    <glyph glyph-name="ic_search" unicode="&#xea2d;" 
d="M888 171l-221 217q29 38 45 85q17 49 17 98q0 84 -42 156q-41 69 -110 110q-72 42 -156 42t-156 -42q-70 -41 -111 -110q-41 -72 -41 -156t41 -156q41 -70 111 -111q72 -41 156 -41q52 0 100.5 17t86.5 49l221 -216zM421 346q-62 0 -113.5 30t-81.5 81.5t-30 113
t30 113.5t81.5 82t113 30t113.5 -30t82 -82t30 -113.5t-30 -113t-82 -81.5t-113 -30z" />
    <glyph glyph-name="ic_share" unicode="&#xea2e;" 
d="M855 517l-271 210v-108q-145 -36 -251 -107q-142 -95 -188 -239q107 93 271 127q85 18 166 17h2v-111z" />
    <glyph glyph-name="ic_show_pw" unicode="&#xea2f;" 
d="M500 688q-51 0 -94 -25.5t-68.5 -68.5t-25 -94t25.5 -94t68 -68t94 -25t94 25t68.5 68t25 94t-25.5 94t-68 68.5t-94 25.5zM500 354q-39 0 -72.5 20t-53.5 53.5t-20 72.5t20 72.5t53.5 53.5t72.5 20t72.5 -20t53.5 -53.5t20 -72.5t-20 -72.5t-53.5 -53.5t-72.5 -20z
M908 500q-46 121 -152.5 187.5t-251.5 66.5h-8q-145 0 -251.5 -66.5t-152.5 -187.5v0q46 -121 152.5 -187.5t251.5 -66.5h8q145 0 251.5 66.5t152.5 187.5v0zM500 288q-127 0 -221 55.5t-141 156.5q47 101 141 157t221 56t221 -56t142 -157q-48 -101 -142 -157t-221 -56v1z
" />
    <glyph glyph-name="ic_show_pw_disabled" unicode="&#xea30;" 
d="M172 199l613 613l29 -29l-613 -613zM313 500q0 -62 33 -108l29 29q-12 15 -18.5 36t-6.5 43q0 39 20 72.5t53.5 53.5t72.5 20q42 0 79 -25l29 29q-18 18 -45 28t-59 10q-51 0 -94 -25.5t-68 -68.5t-25 -94zM646 500q0 -39 -20 -72.5t-53.5 -53.5t-72.5 -20q-42 0 -79 25
l-29 -29q46 -33 108 -33q51 0 94 25t68.5 68t25.5 94q0 62 -34 109l-29 -30q10 -24 15 -41q6 -22 6 -42zM138 500q47 101 141 157t221 56q69 -1 146 -21l33 33q-76 29 -175 29h-8q-145 0 -251.5 -66.5t-152.5 -187.5q24 -65 67 -114.5t99 -81.5l34 34q-106 59 -154 162z
M742 696l-34 -33q106 -60 154 -163q-47 -101 -141 -157t-221 -56q-69 1 -146 21l-33 -33q76 -29 175 -29h8q145 0 251.5 66.5t152.5 187.5q-24 65 -67 114.5t-99 81.5z" />
    <glyph glyph-name="ic_sign_in" unicode="&#xea31;" 
d="M292 708h175v42h-217v-500h217v42h-175v416zM750 521h-254l83 87l-33 25l-129 -133l129 -133l33 25l-83 87h254v42z" />
    <glyph glyph-name="ic_sign_out" unicode="&#xea32;" 
d="M277 708h175v42h-217v-500h217v42h-175v416zM631 638l-33 -34l87 -83h-254v-42h254l-87 -83l33 -33l134 137z" />
    <glyph glyph-name="ic_social_fb" unicode="&#xea33;" 
d="M892 941h-782q-18 0 -32 -15.5t-14 -34.5v-785q0 -19 14 -33t32 -14v0h422v341h-112v131h112v100q0 83 46.5 129t125.5 46q69 0 103 -3v-122h-68q-40 0 -54 -17q-12 -14 -12 -48v-85h131l-22 -131h-115v-341h222q18 0 32 14t14 33v785q5 18 -8.5 34t-34.5 16v0z" />
    <glyph glyph-name="ic_social_googleplus" unicode="&#xea34;" 
d="M900 571h-125v125q0 6 -5 11.5t-12 5.5h-37q-6 -1 -11.5 -6t-5.5 -11v-125h-125q-6 0 -11 -5.5t-6 -11.5v-37q1 -7 6 -12t11 -5h125v-125q0 -6 5.5 -11.5t11.5 -5.5h37q7 0 12 5.5t5 11.5v125h125q6 0 11.5 5t5.5 12v37q0 6 -5.5 11.5t-11.5 5.5zM475 458q-18 12 -34 30
t-16 25q0 9 1.5 14.5t9.5 13t27 22.5q34 24 52 57.5t18 71.5q0 71 -37 108h17q8 0 8 4l50 38q8 8 8 20q-3 7 -7 10t-9 3h-221q-38 0 -75 -13q-61 -22 -99.5 -68t-38.5 -98q0 -49 24 -89.5t65 -64t90 -25.5q0 -4 -2 -12.5t-2 -12.5q0 -21 13 -46h-4q-75 0 -135.5 -33.5
t-85.5 -87.5q-9 -25 -9 -54q0 -13 3.5 -27t9.5 -23q15 -28 48.5 -49.5t80.5 -33.5q50 -13 99 -13t93 13q65 18 105.5 63.5t40.5 100t-20 90t-68 66.5zM196 296q0 24 19.5 46.5t52.5 36t69 13.5h1q20 0 45 -9q9 -8 17 -8l18 -13q22 -16 30 -24q12 -12 14 -25q1 -5 3 -11
t2 -10q0 -96 -142 -96q-35 0 -64.5 13.5t-47 36.5t-17.5 50zM267 788q10 10 19 15q12 5 27 5v0q37 0 67 -35t37 -86q3 -27 -2.5 -51t-18.5 -40q-11 -11 -20 -15q-11 -6 -26 -6v0q-23 0 -45.5 17.5t-38.5 46t-20 61.5q-3 25 2.5 48.5t18.5 38.5v1z" />
    <glyph glyph-name="ic_social_pinterest" unicode="&#xea35;" 
d="M938 500q0 -118 -60 -220q-59 -99 -158 -158q-102 -59 -220 -59q-67 0 -128 18q15 23 30 55q16 34 23 61l28 103q12 -21 40 -35.5t60 -14.5q64 0 118 37q51 36 80.5 98.5t29.5 136.5q0 71 -35.5 128.5t-97 91t-135.5 33.5q-91 0 -159 -38q-63 -36 -98 -98
q-34 -59 -34 -130q0 -51 24 -99q25 -51 63 -69q8 -3 11 -2t5 8q0 3 5.5 23t7.5 27q0 9 -4 12q-14 17 -22.5 44.5t-8.5 55.5q0 50 23.5 93.5t66.5 69.5q47 28 107 28q53 0 94 -22.5t64 -63t23 -92.5q0 -58 -18 -103.5t-49 -71t-70 -25.5q-33 0 -53 23t-13 55q5 20 18 60
q10 32 13 47q7 24 7 40q0 27 -15 44.5t-42 17.5q-32 0 -55 -30.5t-23 -75.5q0 -17 3 -34q3 -12 7 -23l3 -9l-23 -96q-23 -101 -27 -122q-7 -26 -6 -64q0 -32 6 -61q-83 31 -146.5 91.5t-98.5 141.5q-36 82 -36 173q0 118 59 220q59 99 158 158q102 60 220 60t220 -60
q99 -59 158 -158q60 -102 60 -220z" />
    <glyph glyph-name="ic_social_twitter" unicode="&#xea36;" 
d="M327 119q127 0 234 50q98 45 171 128q69 78 106 176q35 96 35 193v25q50 37 97 100q-45 -21 -109 -32q59 37 84 107q-59 -35 -122 -44q-26 28 -62 43.5t-78 15.5q-52 0 -96.5 -26t-71 -70.5t-26.5 -96.5q0 -14 5 -38l1 -6q-118 7 -222 59.5t-175 140.5
q-13 -19 -20.5 -43.5t-7.5 -50.5q0 -48 23 -90.5t62 -68.5q-48 0 -88 25v-3q0 -47 20 -87t55 -66.5t78 -34.5q-31 -6 -50 -6q-25 0 -37 3q19 -57 69 -94.5t112 -39.5q-49 -40 -110 -61t-127 -21q-32 0 -47 3q65 -44 141 -67t156 -23z" />
    <glyph glyph-name="ic_tick-black" unicode="&#xea38;" 
d="M21 479l292 -291l666 666z" />
    <glyph glyph-name="ic_tick-black" unicode="&#xea37;" 
d="M21 479l292 -291l666 666z" />
    <glyph glyph-name="ic_toggle_off" unicode="&#xea39;" 
d="M250 736h500q64 0 118.5 -31.5t86 -86t31.5 -118.5t-31.5 -118.5t-86 -86t-118.5 -31.5h-500q-64 0 -118.5 31.5t-86 86t-31.5 118.5t31.5 118.5t86 86t118.5 31.5zM64 500q0 -53 26 -98t70.5 -70.5t98 -25.5t98 25.5t70.5 70.5t26 98t-26 98t-70.5 70.5t-98 25.5
t-98 -25.5t-70.5 -70.5t-26 -98z" />
    <glyph glyph-name="ic_toggle_on" unicode="&#xea3a;" 
d="M986 500q0 -64 -31.5 -118.5t-86 -86t-118.5 -31.5h-500q-64 0 -118.5 31.5t-86 86t-31.5 118.5t31.5 118.5t86 86t118.5 31.5h500q64 0 118.5 -31.5t86 -86t31.5 -118.5zM742 694q-54 0 -98.5 -25.5t-70.5 -70.5t-26 -98t26 -98t70.5 -70.5t98 -25.5t98 25.5t70.5 70.5
t26 98t-26 98t-70.5 70.5t-97.5 25.5z" />
    <glyph glyph-name="ic_tooltip" unicode="&#xea3b;" 
d="M500 854q-96 0 -179 -48q-80 -47 -127 -127q-48 -83 -48 -179t48 -179q47 -80 127 -127q83 -48 179 -48t179 48q80 47 127 127q48 83 48 179t-48 179q-47 80 -127 127q-83 48 -179 48zM500 188q-84 0 -157 43q-71 41 -112 112q-43 73 -43 157t43 157q41 71 112 112
q73 44 157 44t157 -44q71 -41 112 -112q43 -73 43.5 -157t-43.5 -157q-41 -71 -112 -112q-73 -43 -157 -43zM500 721q-31 0 -57.5 -16t-43 -43t-16.5 -58h42q0 28 23.5 51.5t51.5 23.5t51.5 -23.5t23.5 -51.5t-23.5 -51.5t-51.5 -23.5h-21v-112h42v75q40 9 68 41.5t28 70.5
q0 31 -16.5 58t-43 43t-57.5 16zM500 358q13 0 23 -10t10 -22.5t-10 -23t-22.5 -10.5t-23 10.5t-10.5 23t10.5 22.5t22.5 10z" />
  </font>
</defs>
</svg>
